<?xml version="1.0" standalone="no"?>
<!DOCTYPE svg PUBLIC "-//W3C//DTD SVG 1.1//EN" "http://www.w3.org/Graphics/SVG/1.1/DTD/svg11.dtd" >
<svg xmlns="http://www.w3.org/2000/svg">
<metadata></metadata>
<defs>
<font id="plumbregular" horiz-adv-x="1069" >
<font-face units-per-em="2048" ascent="1585" descent="-463" />
<missing-glyph horiz-adv-x="509" />
<glyph horiz-adv-x="2048" />
<glyph horiz-adv-x="2048" />
<glyph unicode="&#xd;" horiz-adv-x="682" />
<glyph unicode=" "  horiz-adv-x="509" />
<glyph unicode="&#x09;" horiz-adv-x="509" />
<glyph unicode="&#xa0;" horiz-adv-x="509" />
<glyph unicode="!" horiz-adv-x="647" d="M252 96q0 43 30.5 73t73.5 30q41 0 72 -30t31 -71q0 -44 -30 -74t-73 -30t-73.5 29.5t-30.5 72.5zM270 1458h172l-26 -1048h-119z" />
<glyph unicode="&#x22;" horiz-adv-x="866" d="M180 1110v348h162v-348h-162zM524 1110v348h162v-348h-162z" />
<glyph unicode="#" horiz-adv-x="1337" d="M158 465v131h204l48 289h-189v135h207l70 440h153l-71 -440h325l70 440h149l-69 -440h178v-135h-197l-47 -289h182v-131h-202l-74 -465h-152l74 465h-328l-71 -465h-152l74 465h-182zM512 596h326l47 289h-326z" />
<glyph unicode="$" horiz-adv-x="1220" d="M86 180l107 107q53 -50 85.5 -73t77.5 -44q44 -20 82 -28t107 -13v543l-41 4q-173 17 -276 121t-103 262q0 165 100 274q100 110 312 135v183h122v-183q126 -10 201 -41q49 -20 84 -42.5t96 -73.5l-100 -101q-78 65 -135 88q-58 25 -152 35v-530l64 -10q96 -15 156 -38.5 t108 -64.5q125 -107 125 -289q0 -155 -98 -264q-65 -69 -150.5 -101t-198.5 -44v-225h-122v221q-92 6 -144 17t-110 36q-55 24 -95 52t-102 87zM279 1065q0 -107 63 -166t203 -82v516q-81 -10 -129 -33q-137 -65 -137 -235zM653 129q82 10 137.5 28.5t96.5 65.5 q63 72 63 174q0 118 -71 183q-18 17 -38 29t-46.5 19.5t-43 11t-51.5 8.5t-47 7v-526z" />
<glyph unicode="%" horiz-adv-x="1705" d="M133 981v215q0 123 77 200t200 77q122 0 199 -77t77 -200v-215q0 -121 -77 -197.5t-199 -76.5q-123 0 -200 76t-77 198zM250 985q0 -176 162 -176q77 0 117 45t40 131v207q0 88 -40.5 133t-118.5 45q-160 0 -160 -178v-207zM451 0l684 1458h122l-684 -1458h-122z M1022 262v215q0 123 76.5 200t199.5 77q122 0 199.5 -77t77.5 -200v-215q0 -123 -77 -199.5t-200 -76.5t-199.5 76.5t-76.5 199.5zM1139 266q0 -178 159 -178q78 0 119 45t41 133v207q0 88 -41 133t-119 45q-159 0 -159 -178v-207z" />
<glyph unicode="&#x26;" horiz-adv-x="1513" d="M158 408q0 140 82 245q41 52 85 88.5t148 106.5q-80 96 -111 149q-47 80 -47 170q0 129 92 216t228 87q135 0 227 -87t92 -216q0 -31 -7.5 -60t-17 -51.5t-29.5 -47.5t-34.5 -41t-43.5 -38.5t-44 -33.5t-48 -34t-46 -32l373 -448q37 58 55 115q25 81 27 219h147 q-3 -107 -12.5 -166t-34.5 -125q-15 -44 -32 -74t-56 -82l223 -268h-194l-131 160q-68 -60 -121 -92q-142 -80 -312 -80q-207 0 -332.5 115.5t-125.5 304.5zM309 412q0 -128 87.5 -207.5t226.5 -79.5q83 0 165 31q47 18 83 40.5t90 69.5l-402 484q-77 -53 -109.5 -80 t-68.5 -66q-72 -78 -72 -192zM469 1169q0 -51 27 -98q26 -47 104 -143l78 53q72 50 101.5 91t29.5 93q0 72 -50 122t-122 50q-73 0 -120.5 -47.5t-47.5 -120.5z" />
<glyph unicode="'" horiz-adv-x="522" d="M180 1110v348h162v-348h-162z" />
<glyph unicode="(" horiz-adv-x="610" d="M188 195v1069q0 129 43 211q14 28 44.5 65t47 54t56.5 57l100 -101l-15 -15l-16 -16t-14.5 -15t-15 -16.5t-13 -15.5t-14 -17.5t-11.5 -17.5t-11 -20q-33 -62 -33 -166v-1044q0 -104 33 -166q5 -10 11 -20t11.5 -17.5t14 -17.5t13 -15.5t15 -16.5t14.5 -15l16 -16l15 -15 l-100 -101q-80 80 -113 121q-43 59 -60.5 118t-17.5 149z" />
<glyph unicode=")" horiz-adv-x="610" d="M127 -88q7 7 24.5 23.5t26.5 26.5t22.5 24.5t23 29t16.5 29.5q28 61 28 162v1044q0 101 -28 162q-9 19 -24.5 39t-24.5 30t-34.5 35t-29.5 29l104 105q80 -80 113 -121q43 -59 59.5 -116t16.5 -150v-1069q0 -136 -41 -211q-16 -30 -45.5 -66.5t-46 -53.5t-56.5 -57z" />
<glyph unicode="*" horiz-adv-x="970" d="M137 967l246 133l-246 135l60 98l237 -145l-8 280h119l-8 -280l239 145l58 -98l-246 -135l246 -133l-58 -101l-239 146l8 -281h-119l8 281l-237 -146z" />
<glyph unicode="+" d="M106 479v137h361v357h137v-357h359v-137h-359v-360h-137v360h-361z" />
<glyph unicode="," horiz-adv-x="540" d="M59 -233l121 460h199l-197 -460h-123z" />
<glyph unicode="-" horiz-adv-x="872" d="M156 483v138h561v-138h-561z" />
<glyph unicode="." horiz-adv-x="540" d="M154 111q0 47 34.5 81.5t81.5 34.5q46 0 81.5 -34.5t35.5 -79.5q0 -49 -34.5 -84t-82.5 -35q-47 0 -81.5 35t-34.5 82z" />
<glyph unicode="/" horiz-adv-x="727" d="M0 -152l584 1762h145l-584 -1762h-145z" />
<glyph unicode="0" d="M135 389v680q0 177 112.5 289t287.5 112t287 -112t112 -289v-680q0 -177 -112 -289t-287 -112t-287.5 112t-112.5 289zM283 397q0 -127 68 -202.5t184 -75.5q115 0 183 75t68 203v664q0 128 -68 203t-183 75q-116 0 -184 -75.5t-68 -202.5v-664z" />
<glyph unicode="1" d="M256 1055v168l272 235h148v-1458h-148v1294z" />
<glyph unicode="2" d="M139 0v131l576 731q82 104 82 217q0 120 -68.5 190t-185.5 70q-242 0 -254 -264h-148q3 63 9.5 96.5t23.5 71.5q46 107 143.5 167t227.5 60q180 0 289.5 -108t109.5 -285q0 -81 -26 -146t-91 -149l-510 -651h627v-131h-805z" />
<glyph unicode="3" d="M86 371h147q27 -254 279 -254q129 0 206 78.5t77 210.5q0 135 -73.5 205.5t-213.5 70.5h-31v129h31q126 0 193 67t67 193q0 125 -69 197.5t-187 72.5q-226 0 -260 -243h-148q10 98 39 157q51 103 148.5 160.5t222.5 57.5q180 0 290.5 -109.5t110.5 -288.5 q0 -154 -88 -248q-37 -37 -108 -73q79 -34 119 -74q104 -98 104 -281q0 -189 -116.5 -301t-313.5 -112t-313 110q-58 54 -81 117.5t-32 157.5z" />
<glyph unicode="4" d="M82 231v134l526 1093h158l-526 -1093h424v413h145v-413h178v-134h-178v-231h-145v231h-582z" />
<glyph unicode="5" d="M143 344h148q20 -120 77.5 -173.5t166.5 -53.5q117 0 184 67q44 44 62 110.5t18 186.5q0 186 -60 270.5t-192 84.5q-124 0 -197 -76q-21 -24 -39 -68h-133v766h737v-131h-604v-463q48 48 97 68q67 33 163 33q161 0 254 -93q65 -63 93 -155t28 -240q0 -144 -27 -232 t-90 -151q-108 -108 -290 -108q-78 0 -146 19.5t-126 65.5t-87 115q-28 68 -37 158z" />
<glyph unicode="6" d="M133 403q0 147 92 332l359 723h151l-325 -655q69 31 151 31q169 0 275 -116t106 -300q0 -192 -112 -311t-293 -119q-182 0 -293 114t-111 301zM281 414q0 -134 69.5 -214.5t186.5 -80.5q115 0 186.5 80t71.5 209q0 137 -70 219t-188 82q-117 0 -186.5 -80t-69.5 -215z " />
<glyph unicode="7" d="M156 1098v360h809v-131l-506 -1327h-156l506 1327h-508v-229h-145z" />
<glyph unicode="8" d="M104 399q0 145 91 252q45 54 129 105q-74 48 -109 88q-82 98 -82 235q0 170 113.5 280.5t288.5 110.5q174 0 287.5 -111t113.5 -280q0 -139 -82 -237q-23 -26 -44 -43.5t-62 -42.5q84 -53 126 -103q91 -111 91 -254q0 -178 -122 -294.5t-308 -116.5t-308.5 116.5 t-122.5 294.5zM252 403q0 -121 81.5 -202.5t201.5 -81.5q119 0 200.5 80.5t81.5 197.5q0 126 -80 208.5t-202 82.5q-120 0 -201.5 -82t-81.5 -203zM281 1077q0 -115 70.5 -187.5t183.5 -72.5q110 0 181.5 72t71.5 184q0 118 -70 192t-183 74q-112 0 -183 -73t-71 -189z" />
<glyph unicode="9" d="M127 1038q0 194 112 313t293 119q182 0 293 -115t111 -302q0 -145 -92 -330l-359 -723h-153l327 655q-69 -30 -153 -30q-169 0 -274 114.5t-105 298.5zM274 1047q0 -135 69.5 -216t186.5 -81q116 0 187 79.5t71 208.5q0 138 -70 219.5t-188 81.5q-117 0 -186.5 -80 t-69.5 -212z" />
<glyph unicode=":" horiz-adv-x="540" d="M154 111q0 47 34.5 81.5t81.5 34.5q46 0 81.5 -34.5t35.5 -79.5q0 -49 -34.5 -84t-82.5 -35q-47 0 -81.5 35t-34.5 82zM154 836q0 47 34.5 81.5t81.5 34.5q46 0 81.5 -34.5t35.5 -79.5q0 -49 -34.5 -84t-82.5 -35q-47 0 -81.5 35t-34.5 82z" />
<glyph unicode=";" horiz-adv-x="540" d="M59 -233l121 460h199l-197 -460h-123zM154 836q0 47 34.5 81.5t81.5 34.5q46 0 81.5 -34.5t35.5 -79.5q0 -49 -34.5 -84t-82.5 -35q-47 0 -81.5 35t-34.5 82z" />
<glyph unicode="&#x3c;" d="M80 479v150l907 364v-151l-737 -287l737 -287v-151z" />
<glyph unicode="=" d="M106 309v135h857v-135h-857zM106 655v138h857v-138h-857z" />
<glyph unicode="&#x3e;" d="M80 117v151l739 287l-739 287v151l907 -364v-150z" />
<glyph unicode="?" horiz-adv-x="1017" d="M156 1096q9 172 113.5 273t271.5 101q164 0 273.5 -106t109.5 -264q0 -118 -93 -250l-167 -242q-37 -57 -37 -119v-79h-148v82q0 56 14 98t50 94l166 240q38 55 52.5 93.5t14.5 82.5q0 103 -67 171t-168 68q-105 0 -168.5 -64.5t-69.5 -178.5h-147zM449 96q0 43 29.5 73 t72.5 30q41 0 71.5 -30t30.5 -71q0 -44 -29.5 -74t-72.5 -30t-72.5 29.5t-29.5 72.5z" />
<glyph unicode="@" horiz-adv-x="1460" d="M147 328v688q0 212 113.5 328t317.5 116h303q204 0 318 -117t114 -327v-1016h-142v113q-35 -41 -58 -60.5t-54 -34.5q-69 -32 -158 -32q-182 0 -283 125q-51 61 -70.5 144t-19.5 232q0 142 19.5 229t64.5 146q98 127 285 127q80 0 154 -33q35 -17 58 -36t60 -60v160 q0 154 -79 234.5t-228 80.5h-266q-141 0 -223 -82q-46 -46 -64 -97t-18 -136v-690q0 -98 22.5 -145t94.5 -103l-101 -100q-54 42 -79 68.5t-44 62.5q-37 73 -37 215zM674 487q0 -197 59 -285.5t189 -88.5q129 0 188 88.5t59 283.5q0 198 -58.5 287.5t-188.5 89.5t-189 -89 t-59 -286z" />
<glyph unicode="A" horiz-adv-x="1251" d="M25 0l536 1458h131l535 -1458h-166l-117 330h-637l-117 -330h-165zM354 465h545l-270 770z" />
<glyph unicode="B" horiz-adv-x="1368" d="M211 0v1458h549q193 0 311.5 -105.5t118.5 -277.5q0 -157 -107 -258q-22 -22 -42.5 -34.5t-65.5 -32.5q51 -22 77 -38t52 -42q108 -105 108 -271q0 -186 -116 -292.5t-318 -106.5h-567zM367 139h397q135 0 214 73t79 196t-79 194.5t-214 71.5h-397v-535zM367 813h381 q135 0 210.5 67t75.5 187q0 119 -75.5 185.5t-210.5 66.5h-381v-506z" />
<glyph unicode="C" horiz-adv-x="1202" d="M156 694v35v22q0 86 0.5 127t4.5 106t12.5 101.5t23 82.5t38.5 81.5t58 69.5q151 151 375 151q126 0 214 -41.5t193 -136.5l-104 -104q-75 73 -142 108t-159 35q-154 0 -256 -102q-67 -68 -85 -178.5t-18 -321.5v-55q0 -202 21 -293t82 -152q99 -102 256 -102 q92 0 159 35t142 108l104 -104q-104 -94 -192.5 -136t-212.5 -42q-226 0 -377 151q-34 34 -58 72t-39 86.5t-23.5 86t-12 101t-4 99t-0.5 110.5z" />
<glyph unicode="D" horiz-adv-x="1378" d="M211 0v1458h500q233 0 368 -135q144 -144 144 -455v-118v-35q0 -81 -1 -125t-8 -120t-21 -126t-43 -108t-71 -101q-132 -135 -368 -135h-500zM367 139h317q191 0 287 107q50 54 73 147t23 242v110q0 215 -19.5 310.5t-76.5 156.5q-101 107 -287 107h-317v-1180z" />
<glyph unicode="E" horiz-adv-x="1228" d="M211 0v1458h905v-139h-749v-514h639v-139h-639v-527h749v-139h-905z" />
<glyph unicode="F" horiz-adv-x="1187" d="M211 0v1458h905v-139h-749v-537h639v-139h-639v-643h-156z" />
<glyph unicode="G" horiz-adv-x="1320" d="M156 729q0 78 0.5 115t3 98.5t7.5 94t14.5 79t24.5 77t36.5 64t50.5 62.5q151 151 377 151q136 0 228.5 -46t203.5 -152l-105 -105q-84 84 -154.5 124t-170.5 40q-154 0 -258 -104q-22 -23 -39 -52.5t-28 -54.5t-18 -69.5t-10.5 -68.5t-5.5 -82t-2 -80v-91v-55 q0 -202 21 -293t82 -152q102 -102 252 -102q82 0 153.5 32.5t120.5 92.5q80 95 80 266v109h-354v137h510v-232q0 -128 -29.5 -216t-95.5 -160q-154 -168 -385 -168q-222 0 -373 151q-29 29 -50.5 62t-36.5 63t-24.5 76t-14.5 78t-7.5 94t-3 99.5t-0.5 117.5z" />
<glyph unicode="H" horiz-adv-x="1425" d="M211 0v1458h156v-653h692v653h155v-1458h-155v666h-692v-666h-156z" />
<glyph unicode="I" horiz-adv-x="577" d="M211 0v1458h156v-1458h-156z" />
<glyph unicode="J" horiz-adv-x="1026" d="M47 119l105 104q56 -54 105 -75t122 -21q145 0 223 87.5t78 248.5v995h156v-1016q0 -206 -125 -330t-332 -124q-107 0 -191 35q-41 18 -69.5 37t-71.5 59z" />
<glyph unicode="K" horiz-adv-x="1331" d="M211 0v1458h156v-837l680 837h190l-459 -563l525 -895h-185l-444 776l-307 -368v-408h-156z" />
<glyph unicode="L" horiz-adv-x="1173" d="M211 0v1458h156v-1319h745v-139h-901z" />
<glyph unicode="M" horiz-adv-x="1671" d="M211 0v1458h156l475 -1034l463 1034h155v-1458h-155v1108l-400 -879h-133l-405 879v-1108h-156z" />
<glyph unicode="N" horiz-adv-x="1499" d="M211 0v1458h147l775 -1165v1165h155v-1458h-147l-774 1169v-1169h-156z" />
<glyph unicode="O" horiz-adv-x="1331" d="M156 729v62v65t1 62t3.5 65.5t7 60.5t11.5 62t17.5 56.5t24 57.5t32 50.5t40.5 48.5q151 151 373 151q221 0 372 -151q22 -22 40.5 -48.5t32 -50t24 -58t17.5 -56.5t12 -62.5t7.5 -60t3.5 -65.5t1 -62v-65.5v-61.5q0 -104 -1.5 -162.5t-8.5 -130.5t-21.5 -117.5t-41 -93 t-65.5 -86.5q-151 -151 -372 -151q-222 0 -373 151q-33 33 -56.5 68t-38.5 80.5t-23.5 85.5t-12.5 105t-5 114t-1 137zM310 600q0 -16 1.5 -60t4.5 -62.5t7.5 -54.5t12.5 -56.5t18.5 -47.5t25.5 -48t34 -40q104 -104 252 -104t252 104q21 21 37.5 48t27 49t18 61.5t11.5 59 t6 69.5t2 66v26v48v71q0 202 -7 265q-17 155 -95 233q-104 104 -252 104t-252 -104q-25 -25 -43.5 -54t-29.5 -68t-17.5 -68t-9 -84.5t-3 -84t-0.5 -97.5v-42q-1 -13 -1 -63v-41.5v-24.5z" />
<glyph unicode="P" horiz-adv-x="1290" d="M211 0v1458h543q202 0 326 -118t124 -310q0 -194 -124 -312t-326 -118h-387v-600h-156zM367 739h372q146 0 228 77t82 214q0 136 -82 212.5t-228 76.5h-372v-580z" />
<glyph unicode="Q" horiz-adv-x="1329" d="M156 729v74q0 226 27 329.5t110 186.5q151 151 373 151q221 0 372 -151q46 -48 79 -108t40 -113q19 -140 19 -369v-70q0 -142 -8 -222.5t-29 -139.5q-17 -51 -64 -115l160 -159l-94 -95l-162 162q-77 -54 -149 -78t-164 -24q-222 0 -373 151q-39 39 -66 92t-40.5 101.5 t-21 124.5t-8.5 127.5t-1 144.5zM311 674q0 -201 21 -290.5t82 -152.5q101 -104 252 -104q57 0 104 16t102 54l-184 184l94 94l179 -178q24 42 34 78q20 78 23 227l2 127q1 40 1 77q0 181 -17 260q-20 95 -86 161q-101 104 -252 104t-252 -104q-77 -80 -86 -168 q-17 -125 -17 -330v-55z" />
<glyph unicode="R" horiz-adv-x="1343" d="M211 0v1458h559q195 0 313.5 -110.5t118.5 -294.5q0 -201 -143 -314q-34 -27 -69.5 -42.5t-104.5 -34.5l346 -662h-182l-332 647h-350v-647h-156zM367 784h389q137 0 214 70.5t77 196.5t-77 197t-214 71h-389v-535z" />
<glyph unicode="S" horiz-adv-x="1204" d="M86 180l107 107q55 -52 90 -76t84 -45q95 -39 215 -39q167 0 259.5 71.5t92.5 200.5q0 120 -70 181q-33 30 -70.5 43.5t-119.5 25.5l-170 27q-379 59 -379 381q0 193 127.5 303t351.5 110q133 0 234 -40q51 -19 89 -43t99 -76l-100 -101q-48 41 -77.5 59.5t-68.5 33.5 q-77 32 -186 32q-149 0 -232 -71.5t-83 -200.5q0 -206 262 -246l159 -24q99 -15 159.5 -38.5t107.5 -64.5q123 -105 123 -289q0 -193 -139 -303t-384 -110q-152 0 -276 51q-57 23 -98 51.5t-107 89.5z" />
<glyph unicode="T" horiz-adv-x="1122" d="M61 1319v139h1000v-139h-422v-1319h-156v1319h-422z" />
<glyph unicode="U" horiz-adv-x="1398" d="M190 481v977h156v-964q0 -166 96 -266.5t256 -100.5t257.5 100.5t97.5 266.5v964h155v-977q0 -216 -143.5 -354.5t-366.5 -138.5t-365.5 138t-142.5 355z" />
<glyph unicode="V" horiz-adv-x="1118" d="M16 1458h164l379 -1179l379 1179h164l-479 -1458h-127z" />
<glyph unicode="W" horiz-adv-x="1748" d="M33 1458h166l284 -1175l322 1175h139l322 -1175l284 1175h166l-373 -1458h-145l-324 1167l-323 -1167h-145z" />
<glyph unicode="X" horiz-adv-x="1128" d="M31 0l446 748l-418 710h181l323 -575l324 575h180l-420 -710l451 -748h-180l-355 612l-356 -612h-176z" />
<glyph unicode="Y" horiz-adv-x="1052" d="M16 1458h168l344 -698l340 698h168l-430 -856v-602h-155v602z" />
<glyph unicode="Z" horiz-adv-x="1138" d="M117 0v147l729 1172h-701v139h877v-131l-735 -1188h735v-139h-905z" />
<glyph unicode="[" horiz-adv-x="641" d="M188 -152v1762h363v-131h-215v-1499h215v-132h-363z" />
<glyph unicode="\" horiz-adv-x="727" d="M0 1604h145l582 -1756h-145z" />
<glyph unicode="]" horiz-adv-x="641" d="M90 -25h221v1508h-221v127h363v-1762h-363v127z" />
<glyph unicode="^" d="M131 846l336 624h135l334 -624h-152l-249 467l-252 -467h-152z" />
<glyph unicode="_" horiz-adv-x="1228" d="M0 -233h1229v-105h-1229v105z" />
<glyph unicode="`" horiz-adv-x="1024" d="M256 1530h176l180 -313h-135z" />
<glyph unicode="a" horiz-adv-x="1077" d="M104 285q0 136 93 213t256 77h303v97q0 116 -63 168.5t-201 52.5q-92 0 -156 -31q-26 -12 -45 -29.5t-47 -54.5l-101 92q41 47 66 69t61 40q81 41 226 41q407 0 407 -336v-684h-147v96q-65 -63 -115 -82q-61 -26 -178 -26q-175 0 -267 76t-92 221zM248 287 q0 -91 58 -131.5t186 -40.5q141 0 202.5 56t61.5 185v109h-283q-225 0 -225 -178z" />
<glyph unicode="b" horiz-adv-x="1116" d="M184 0v1458h148v-567q36 42 59 61.5t55 34.5q65 33 162 33q195 0 286 -125.5t91 -392.5q0 -263 -91.5 -388.5t-283.5 -125.5q-96 0 -161 32q-31 14 -54.5 35t-62.5 66v-121h-148zM332 504q0 -202 60 -293.5t194 -91.5q132 0 192 91t60 292q0 206 -59.5 296.5t-194.5 90.5 q-132 0 -192 -92t-60 -293z" />
<glyph unicode="c" horiz-adv-x="1003" d="M129 504q0 242 120.5 379t332.5 137q94 0 170 -31q42 -19 73 -43t82 -76l-100 -94q-68 71 -115 90q-54 23 -112 23q-150 0 -227 -97.5t-77 -287.5t76.5 -287.5t225.5 -97.5q63 0 110 20q30 13 54 32.5t65 61.5l100 -96q-51 -52 -82 -76t-73 -43q-74 -30 -170 -30 q-212 0 -332.5 137t-120.5 379z" />
<glyph unicode="d" horiz-adv-x="1116" d="M131 504q0 265 91.5 390.5t283.5 125.5q97 0 164 -33q32 -15 55 -34.5t59 -61.5v567h148v-1458h-146v121q-39 -46 -62 -66.5t-54 -34.5q-65 -32 -164 -32q-193 0 -284 125t-91 391zM279 504q0 -203 60 -294t193 -91q132 0 192 91t60 292q0 206 -59.5 296.5t-194.5 90.5 q-132 0 -191.5 -92t-59.5 -293z" />
<glyph unicode="e" horiz-adv-x="1085" d="M129 510q0 237 111 373.5t303 136.5t302.5 -131t110.5 -357v-67h-680q5 -119 31 -182q69 -166 275 -166q66 0 129 24q34 14 60 32t67 58l100 -88q-54 -53 -88.5 -77t-81.5 -43q-84 -35 -195 -35q-218 0 -331 132.5t-113 389.5zM276 575h533q-5 93 -18 134 q-26 87 -92 136.5t-156 49.5q-79 0 -142 -40.5t-94 -111.5q-15 -34 -21.5 -68t-9.5 -100z" />
<glyph unicode="f" horiz-adv-x="643" d="M88 889v112h129v191q0 125 69 197.5t187 72.5h107v-127h-80q-135 0 -135 -147v-187h215v-112h-215v-889h-148v889h-129z" />
<glyph unicode="g" horiz-adv-x="1112" d="M131 512q0 260 91.5 384t283.5 124q95 0 162 -33q56 -27 114 -98v119h146v-1039q0 -198 -116 -315t-312 -117q-93 0 -172 29q-40 15 -72.5 36t-89.5 70l96 95q45 -39 69 -55.5t52 -26.5q52 -19 117 -19q134 0 207 80.5t73 228.5v158q-37 -44 -61 -63.5t-57 -34.5 q-65 -33 -156 -33q-191 0 -283 125.5t-92 384.5zM279 512q0 -198 59.5 -287.5t191.5 -89.5q131 0 190.5 89.5t59.5 285.5q0 201 -59 290t-193 89q-130 0 -189.5 -90t-59.5 -287z" />
<glyph unicode="h" horiz-adv-x="1150" d="M184 0v1458h148v-561q37 39 61.5 57t59.5 33q70 33 163 33q166 0 263.5 -100.5t97.5 -272.5v-647h-148v623q0 128 -63.5 197t-181.5 69q-119 0 -185.5 -70t-66.5 -196v-623h-148z" />
<glyph unicode="i" horiz-adv-x="518" d="M158 1386q0 41 29.5 71t70.5 30t71.5 -29t30.5 -69q0 -43 -29.5 -73t-72.5 -30q-41 0 -70.5 29.5t-29.5 70.5zM184 0v1008h148v-1008h-148z" />
<glyph unicode="j" horiz-adv-x="518" d="M-31 -324h80q72 0 103.5 35t31.5 113v1184h148v-1190q0 -128 -67.5 -199.5t-188.5 -71.5h-107v129zM158 1386q0 41 29.5 71t70.5 30t71.5 -29t30.5 -69q0 -43 -29.5 -73t-72.5 -30q-41 0 -70.5 29.5t-29.5 70.5z" />
<glyph unicode="k" horiz-adv-x="1097" d="M184 0v1458h148v-975l454 525h185l-342 -385l401 -623h-182l-320 516l-196 -225v-291h-148z" />
<glyph unicode="l" horiz-adv-x="518" d="M184 0v1458h148v-1458h-148z" />
<glyph unicode="m" horiz-adv-x="1800" d="M184 0v1008h148v-111q38 38 61.5 56t57.5 32q78 35 167 35q144 0 236 -80q38 -33 72 -88q41 52 69.5 77.5t69.5 47.5q79 43 192 43q167 0 268 -102.5t101 -272.5v-645h-147v621q0 127 -64.5 197.5t-181.5 70.5t-185.5 -68t-68.5 -184v-637h-148v621q0 128 -64.5 198 t-182.5 70q-119 0 -185.5 -70.5t-66.5 -197.5v-621h-148z" />
<glyph unicode="n" horiz-adv-x="1150" d="M184 0v1008h148v-111q36 37 59.5 54.5t59.5 35.5q73 33 165 33q166 0 263.5 -101t97.5 -274v-645h-148v621q0 128 -64.5 198t-182.5 70q-119 0 -184.5 -70.5t-65.5 -197.5v-621h-148z" />
<glyph unicode="o" horiz-adv-x="1085" d="M131 504q0 146 29 240.5t94 160.5q115 115 289 115q173 0 288 -115q64 -64 93.5 -159t29.5 -236q0 -151 -28.5 -246t-94.5 -162q-114 -114 -288 -114q-175 0 -289 114q-65 66 -94 161t-29 241zM279 504q0 -123 18.5 -194t62.5 -117q71 -74 183 -74q113 0 184 74 q43 44 61.5 114.5t18.5 190.5q0 130 -18 201.5t-62 115.5q-71 74 -184 74q-112 0 -183 -74q-44 -44 -62.5 -115.5t-18.5 -195.5z" />
<glyph unicode="p" horiz-adv-x="1116" d="M184 -451v1459h148v-119q35 41 58 61t56 37q65 33 162 33q195 0 286 -125.5t91 -392.5q0 -263 -91.5 -388.5t-283.5 -125.5q-96 0 -161 32q-32 15 -56 35.5t-61 63.5v-570h-148zM332 504q0 -202 60 -293.5t194 -91.5q132 0 192 91t60 292q0 206 -59.5 296.5t-194.5 90.5 q-132 0 -192 -92t-60 -293z" />
<glyph unicode="q" horiz-adv-x="1116" d="M131 504q0 265 91.5 390.5t283.5 125.5q99 0 166 -33q31 -14 54 -34.5t60 -63.5v119h146v-1459h-148v570q-38 -44 -61.5 -64t-54.5 -35q-63 -32 -162 -32q-193 0 -284 125t-91 391zM279 504q0 -203 60 -294t193 -91q132 0 192 91t60 292q0 206 -59.5 296.5t-194.5 90.5 q-132 0 -191.5 -92t-59.5 -293z" />
<glyph unicode="r" horiz-adv-x="862" d="M184 0v1008h148v-123q102 135 289 135q74 0 135 -25q46 -17 100 -69l-108 -111q-44 43 -79.5 58.5t-88.5 15.5q-112 0 -180 -74.5t-68 -196.5v-618h-148z" />
<glyph unicode="s" horiz-adv-x="1015" d="M88 133l98 98q62 -57 115 -79q87 -37 201 -37q129 0 197.5 46t68.5 134q0 130 -168 145l-166 15q-301 24 -301 268q0 137 102 217t277 80q114 0 223 -37q65 -23 131 -72l-96 -96q-54 40 -104 55q-77 25 -162 25q-109 0 -168.5 -43.5t-59.5 -124.5q0 -67 43 -102t134 -43 l161 -15q151 -13 224 -80t73 -190q0 -146 -111.5 -227.5t-312.5 -81.5q-136 0 -243 43q-45 19 -75.5 39t-80.5 63z" />
<glyph unicode="t" horiz-adv-x="679" d="M82 889v112h127v316h147v-316h215v-112h-215v-615q0 -72 35 -109.5t103 -37.5h77v-127h-104q-119 0 -188.5 73t-69.5 197v619h-127z" />
<glyph unicode="u" horiz-adv-x="1150" d="M174 365v643h148v-621q0 -129 63.5 -198.5t181.5 -69.5q119 0 185.5 70.5t66.5 197.5v621h148v-1008h-146v113q-37 -38 -61.5 -57t-61.5 -36q-71 -32 -166 -32q-167 0 -262.5 100t-95.5 277z" />
<glyph unicode="v" horiz-adv-x="915" d="M23 1008h159l275 -809l276 809h160l-371 -1008h-131z" />
<glyph unicode="w" horiz-adv-x="1482" d="M23 1008h159l232 -809l264 809h127l266 -809l229 809h160l-317 -1008h-137l-265 782l-262 -782h-137z" />
<glyph unicode="x" horiz-adv-x="978" d="M68 0l342 514l-328 494h178l232 -373l227 373h178l-328 -494l342 -514h-178l-241 391l-246 -391h-178z" />
<glyph unicode="y" horiz-adv-x="915" d="M23 1008h159l277 -809l274 809h160l-459 -1252q-35 -97 -100 -142.5t-168 -45.5h-64v131h45q72 0 105 25t61 100l72 196z" />
<glyph unicode="z" horiz-adv-x="940" d="M102 0v127l562 750h-531v131h701v-125l-564 -752h564v-131h-732z" />
<glyph unicode="{" horiz-adv-x="724" d="M98 664v131h54q63 0 96 41t33 118v392q0 145 61 204.5t207 59.5h76v-131h-47q-97 0 -123.5 -28.5t-26.5 -131.5v-385q0 -78 -28.5 -123t-100.5 -82q72 -37 100.5 -82t28.5 -123v-385q0 -103 26.5 -131t123.5 -28h47v-132h-76q-147 0 -207.5 60t-60.5 205v391 q0 77 -33 118.5t-96 41.5h-54z" />
<glyph unicode="|" horiz-adv-x="667" d="M260 -152v1762h148v-1762h-148z" />
<glyph unicode="}" horiz-adv-x="724" d="M98 -20h49q95 0 122.5 29t27.5 130v385q0 78 28.5 123t100.5 82q-72 37 -100.5 82t-28.5 123v385q0 101 -27.5 130.5t-122.5 29.5h-49v131h78q148 0 208 -59.5t60 -204.5v-392q0 -77 33 -118t96 -41h52v-131h-52q-63 0 -96 -41.5t-33 -118.5v-391q0 -145 -61 -205 t-207 -60h-78v132z" />
<glyph unicode="~" d="M84 543q57 56 89 79.5t71 41.5q41 18 98 18q93 0 221 -64l33 -16q62 -33 131 -33q44 0 77 18t91 75l92 -93q-57 -55 -88.5 -78.5t-71.5 -41.5q-43 -19 -98 -19q-46 0 -93.5 14t-129.5 50l-33 14q-81 35 -131 35q-45 0 -77.5 -17.5t-90.5 -74.5z" />
<glyph unicode="&#xa3;" d="M74 676v110h129v230q0 205 126 329.5t333 124.5q109 0 190 -34q41 -18 69.5 -37t71.5 -60l-106 -104q-55 55 -103.5 75.5t-121.5 20.5q-145 0 -223.5 -87.5t-78.5 -248.5v-209h299v-110h-299v-537h633v-139h-790v676h-129z" />
<glyph unicode="&#xa9;" horiz-adv-x="1804" d="M160 729q0 151 58.5 288.5t157.5 236.5t236.5 157.5t288.5 58.5q147 0 284 -59t237 -157t160 -232t60 -279q0 -156 -57.5 -296t-156.5 -240.5t-236.5 -159.5t-290.5 -59q-151 0 -288.5 58.5t-236.5 157.5t-157.5 236.5t-58.5 288.5zM281 729q0 -128 49 -245t132 -201.5 t198 -134.5t241 -50q165 0 309 84.5t229 227.5t85 307q0 133 -49 252t-132 205t-198.5 136t-243.5 50q-126 0 -241 -50t-198 -134.5t-132 -201.5t-49 -245zM547 729q0 193 98.5 305.5t267.5 112.5q67 0 131 -23q34 -12 61.5 -29.5t74.5 -56.5l-74 -73q-55 46 -96 62.5 t-97 16.5q-251 0 -251 -323q0 -148 64.5 -226.5t186.5 -78.5q58 0 98 16.5t95 61.5l74 -74q-44 -38 -70 -55t-59 -29q-59 -23 -138 -23q-170 0 -268 111t-98 305z" />
<glyph unicode="&#xab;" horiz-adv-x="1134" d="M82 549l430 430v-184l-246 -246l246 -248v-182zM545 549l430 430v-184l-248 -246l248 -248v-182z" />
<glyph unicode="&#xad;" horiz-adv-x="872" d="M156 483v138h561v-138h-561z" />
<glyph unicode="&#xae;" horiz-adv-x="888" d="M59 1087q0 160 112.5 273t272.5 113q157 0 271 -112.5t114 -266.5q0 -165 -111.5 -278.5t-273.5 -113.5q-160 0 -272.5 112.5t-112.5 272.5zM119 1087q0 -136 95.5 -232.5t229.5 -96.5q132 0 229 95.5t97 227.5q0 140 -95 238t-231 98q-133 0 -229 -97.5t-96 -232.5z M319 877v421h144q56 0 94.5 -36.5t38.5 -90.5q0 -40 -25.5 -71t-64.5 -43l100 -180h-67l-97 172h-65v-172h-58zM377 1098h80q34 0 57 20.5t23 52.5t-23 53t-57 21h-80v-147z" />
<glyph unicode="&#xbb;" horiz-adv-x="1134" d="M160 119v182l248 248l-248 246v184l430 -430zM623 119v182l245 248l-245 246v184l430 -430z" />
<glyph unicode="&#x401;" horiz-adv-x="1228" d="M211 0v1458h905v-139h-749v-514h639v-139h-639v-527h749v-139h-905zM332 1704q0 38 27 66t65 28q37 0 64.5 -27.5t27.5 -64.5q0 -40 -27 -67t-65 -27t-65 27t-27 65zM766 1704q0 38 27 66t65 28q37 0 64.5 -27.5t27.5 -64.5q0 -40 -27 -67t-65 -27t-65 27t-27 65z" />
<glyph unicode="&#x402;" horiz-adv-x="1523" d="M53 1319v139h998v-139h-484v-463h379q171 0 283 -94.5t112 -276.5v-477q0 -208 -118.5 -330t-331.5 -122q-106 0 -178 30q-65 24 -133 84l100 111q50 -49 97 -67.5t116 -18.5q139 0 216 87t77 247v434q0 72 -23.5 124.5t-62.5 79t-80.5 38.5t-87.5 12h-365v-717h-155 v1319h-359z" />
<glyph unicode="&#x403;" horiz-adv-x="1165" d="M225 0v1458h877v-139h-721v-1319h-156zM549 1585l180 313h176l-223 -313h-133z" />
<glyph unicode="&#x404;" horiz-adv-x="1202" d="M156 694v35v22q0 86 0.5 127t4.5 106t12.5 101.5t23 82.5t38.5 81.5t58 69.5q151 151 375 151q126 0 214 -41.5t193 -136.5l-104 -104q-75 73 -142 108t-159 35q-154 0 -256 -102q-61 -63 -81 -160t-22 -266h561v-137h-561q0 -196 21.5 -285.5t81.5 -151.5 q99 -102 256 -102q92 0 159 35t142 108l104 -104q-104 -94 -192.5 -136t-212.5 -42q-226 0 -377 151q-34 34 -58 72t-39 86.5t-23.5 86t-12 101t-4 99t-0.5 110.5z" />
<glyph unicode="&#x405;" horiz-adv-x="1204" d="M86 180l107 107q55 -52 90 -76t84 -45q95 -39 215 -39q167 0 259.5 71.5t92.5 200.5q0 120 -70 181q-33 30 -70.5 43.5t-119.5 25.5l-170 27q-379 59 -379 381q0 193 127.5 303t351.5 110q133 0 234 -40q51 -19 89 -43t99 -76l-100 -101q-48 41 -77.5 59.5t-68.5 33.5 q-77 32 -186 32q-149 0 -232 -71.5t-83 -200.5q0 -206 262 -246l159 -24q99 -15 159.5 -38.5t107.5 -64.5q123 -105 123 -289q0 -193 -139 -303t-384 -110q-152 0 -276 51q-57 23 -98 51.5t-107 89.5z" />
<glyph unicode="&#x406;" horiz-adv-x="577" d="M211 0v1458h156v-1458h-156z" />
<glyph unicode="&#x407;" horiz-adv-x="577" d="M-23 1704q0 38 27.5 66t65.5 28q37 0 64.5 -27.5t27.5 -64.5q0 -40 -27 -67t-65 -27t-65.5 27t-27.5 65zM211 0v1458h156v-1458h-156zM412 1704q0 38 27 66t65 28q37 0 64.5 -27.5t27.5 -64.5q0 -40 -27 -67t-65 -27t-65 27t-27 65z" />
<glyph unicode="&#x408;" horiz-adv-x="1026" d="M47 119l105 104q56 -54 105 -75t122 -21q145 0 223 87.5t78 248.5v995h156v-1016q0 -206 -125 -330t-332 -124q-107 0 -191 35q-41 18 -69.5 37t-71.5 59z" />
<glyph unicode="&#x409;" horiz-adv-x="2136" d="M37 0v139h55q58 0 99.5 13t80.5 49t63.5 99t41 165.5t20.5 245.5l23 747h792v-600h394q202 0 325 -118t123 -312q0 -192 -123 -310t-325 -118h-549v1319h-484l-22 -653q-8 -242 -56.5 -389t-137 -212t-228.5 -65h-92zM1212 139h377q146 0 227.5 76t81.5 213 q0 138 -81.5 214.5t-227.5 76.5h-377v-580z" />
<glyph unicode="&#x40a;" horiz-adv-x="2136" d="M211 0v1458h156v-600h690v600h155v-600h394q202 0 325 -118t123 -312q0 -192 -123 -310t-325 -118h-549v719h-690v-719h-156zM1212 139h377q146 0 227.5 76t81.5 213q0 138 -81.5 214.5t-227.5 76.5h-377v-580z" />
<glyph unicode="&#x40b;" horiz-adv-x="1523" d="M53 1319v139h998v-139h-484v-483q240 51 383 51q80 0 149 -22.5t124 -66.5t86.5 -116.5t31.5 -165.5v-516h-155v492q0 72 -23.5 125t-62.5 80t-80.5 39t-87.5 12q-128 0 -365 -50v-698h-155v1319h-359z" />
<glyph unicode="&#x40c;" horiz-adv-x="1331" d="M211 0v1458h156v-837l680 837h190l-459 -563l525 -895h-185l-444 776l-307 -368v-408h-156zM559 1585l180 313h176l-223 -313h-133z" />
<glyph unicode="&#x40e;" horiz-adv-x="1118" d="M20 1458h166l394 -862l354 862h166l-529 -1231q-97 -227 -286 -227h-127v139h92q73 0 116 34t76 112l60 137zM254 1819h117q41 -152 211 -152q168 0 209 152h116q-50 -269 -325 -269q-278 0 -328 269z" />
<glyph unicode="&#x40f;" horiz-adv-x="1425" d="M211 0v1458h156v-1319h690v1319h155v-1458h-421v-373h-154v373h-426z" />
<glyph unicode="&#x410;" horiz-adv-x="1251" d="M25 0l536 1458h131l535 -1458h-166l-117 330h-637l-117 -330h-165zM354 465h545l-270 770z" />
<glyph unicode="&#x411;" horiz-adv-x="1343" d="M211 0v1458h909v-139h-753v-461h395q203 0 325.5 -118t122.5 -312q0 -193 -122.5 -310.5t-325.5 -117.5h-551zM367 139h381q146 0 226.5 76t80.5 213q0 138 -80.5 214.5t-226.5 76.5h-381v-580z" />
<glyph unicode="&#x412;" horiz-adv-x="1368" d="M211 0v1458h549q193 0 311.5 -105.5t118.5 -277.5q0 -157 -107 -258q-22 -22 -42.5 -34.5t-65.5 -32.5q51 -22 77 -38t52 -42q108 -105 108 -271q0 -186 -116 -292.5t-318 -106.5h-567zM367 139h397q135 0 214 73t79 196t-79 194.5t-214 71.5h-397v-535zM367 813h381 q135 0 210.5 67t75.5 187q0 119 -75.5 185.5t-210.5 66.5h-381v-506z" />
<glyph unicode="&#x413;" horiz-adv-x="1165" d="M225 0v1458h877v-139h-721v-1319h-156z" />
<glyph unicode="&#x414;" horiz-adv-x="1437" d="M78 139h147q103 243 139.5 488.5t36.5 718.5v112h779v-1319h174v-512h-154v373h-969v-373h-153v512zM391 139h633v1180h-467v-100q0 -286 -18 -475t-50.5 -314.5t-97.5 -290.5z" />
<glyph unicode="&#x415;" horiz-adv-x="1228" d="M211 0v1458h905v-139h-749v-514h639v-139h-639v-527h749v-139h-905z" />
<glyph unicode="&#x416;" horiz-adv-x="1925" d="M31 0l508 877l-445 581h189l602 -821v821h155v-821l602 821h189l-445 -581l510 -877h-184l-426 750l-246 -322v-428h-155v428l-246 322l-426 -750h-182z" />
<glyph unicode="&#x417;" horiz-adv-x="1204" d="M80 180l106 107q93 -88 176.5 -124t208.5 -36q137 0 228.5 76t91.5 203q0 134 -77.5 203t-219.5 69h-166v135h172q128 0 198 68.5t70 195.5q0 121 -81 188.5t-214 67.5q-105 0 -187.5 -30t-158.5 -97l-96 101q101 86 205.5 124.5t238.5 38.5q196 0 322.5 -106t126.5 -281 q0 -235 -211 -331q236 -84 236 -351q0 -124 -64.5 -219t-174 -144.5t-245.5 -49.5q-159 0 -268 42t-217 150z" />
<glyph unicode="&#x418;" horiz-adv-x="1466" d="M211 0v1458h156v-1188l741 1188h147v-1458h-155v1190l-742 -1190h-147z" />
<glyph unicode="&#x419;" horiz-adv-x="1466" d="M211 0v1458h156v-1188l741 1188h147v-1458h-155v1190l-742 -1190h-147zM408 1819h116q41 -152 211 -152q168 0 209 152h117q-50 -269 -326 -269q-277 0 -327 269z" />
<glyph unicode="&#x41a;" horiz-adv-x="1331" d="M211 0v1458h156v-837l680 837h190l-459 -563l525 -895h-185l-444 776l-307 -368v-408h-156z" />
<glyph unicode="&#x41b;" horiz-adv-x="1425" d="M37 0v139h55q58 0 99.5 13t80.5 49t63.5 99t41 165.5t20.5 245.5l23 747h792v-1458h-155v1319h-484l-22 -653q-8 -242 -56.5 -389t-137 -212t-228.5 -65h-92z" />
<glyph unicode="&#x41c;" horiz-adv-x="1671" d="M211 0v1458h156l475 -1034l463 1034h155v-1458h-155v1108l-400 -879h-133l-405 879v-1108h-156z" />
<glyph unicode="&#x41d;" horiz-adv-x="1425" d="M211 0v1458h156v-653h692v653h155v-1458h-155v666h-692v-666h-156z" />
<glyph unicode="&#x41e;" horiz-adv-x="1331" d="M156 729v62v65t1 62t3.5 65.5t7 60.5t11.5 62t17.5 56.5t24 57.5t32 50.5t40.5 48.5q151 151 373 151q221 0 372 -151q22 -22 40.5 -48.5t32 -50t24 -58t17.5 -56.5t12 -62.5t7.5 -60t3.5 -65.5t1 -62v-65.5v-61.5q0 -104 -1.5 -162.5t-8.5 -130.5t-21.5 -117.5t-41 -93 t-65.5 -86.5q-151 -151 -372 -151q-222 0 -373 151q-33 33 -56.5 68t-38.5 80.5t-23.5 85.5t-12.5 105t-5 114t-1 137zM310.5 599.5q0.5 -15.5 1.5 -59.5t4 -62.5t7.5 -54.5t12.5 -56.5t18.5 -47.5t25.5 -48t34 -40q104 -104 252 -104t252 104q21 21 37.5 48t27 49t18 61.5 t11.5 59t6 69.5t2.5 65.5t0 75t-0.5 70.5q0 202 -7 265q-17 155 -95 233q-104 104 -252 104t-252 -104q-25 -25 -43.5 -54t-29.5 -68t-17.5 -68t-9 -84.5t-3 -84t-0.5 -97.5v-42q0 -13 -0.5 -63.5t0 -66z" />
<glyph unicode="&#x41f;" horiz-adv-x="1425" d="M211 0v1458h1001v-1458h-155v1319h-690v-1319h-156z" />
<glyph unicode="&#x420;" horiz-adv-x="1290" d="M211 0v1458h543q202 0 326 -118t124 -310q0 -194 -124 -312t-326 -118h-387v-600h-156zM367 739h372q146 0 228 77t82 214q0 136 -82 212.5t-228 76.5h-372v-580z" />
<glyph unicode="&#x421;" horiz-adv-x="1202" d="M156 694v35v22q0 86 0.5 127t4.5 106t12.5 101.5t23 82.5t38.5 81.5t58 69.5q151 151 375 151q126 0 214 -41.5t193 -136.5l-104 -104q-75 73 -142 108t-159 35q-154 0 -256 -102q-67 -68 -85 -178.5t-18 -321.5v-55q0 -202 21 -293t82 -152q99 -102 256 -102 q92 0 159 35t142 108l104 -104q-104 -94 -192.5 -136t-212.5 -42q-226 0 -377 151q-34 34 -58 72t-39 86.5t-23.5 86t-12 101t-4 99t-0.5 110.5z" />
<glyph unicode="&#x422;" horiz-adv-x="1122" d="M61 1319v139h1000v-139h-422v-1319h-156v1319h-422z" />
<glyph unicode="&#x423;" horiz-adv-x="1118" d="M20 1458h166l394 -862l354 862h166l-529 -1231q-97 -227 -286 -227h-127v139h92q73 0 116 34t76 112l60 137z" />
<glyph unicode="&#x424;" horiz-adv-x="1519" d="M113 760q0 270 153 425t416 158v123h156v-123q263 -3 416 -158t153 -425q0 -271 -151.5 -430t-417.5 -160v-178h-156v178q-266 1 -417.5 160t-151.5 430zM268 756q0 -203 107 -324.5t307 -124.5v897q-205 -1 -309.5 -122t-104.5 -326zM838 307q198 3 305.5 124.5 t107.5 324.5q0 204 -104.5 325.5t-308.5 122.5v-897z" />
<glyph unicode="&#x425;" horiz-adv-x="1128" d="M31 0l446 748l-418 710h181l323 -575l324 575h180l-420 -710l451 -748h-180l-355 612l-356 -612h-176z" />
<glyph unicode="&#x426;" horiz-adv-x="1470" d="M211 0v1458h156v-1319h690v1319h155v-1319h174v-512h-153v373h-1022z" />
<glyph unicode="&#x427;" horiz-adv-x="1320" d="M156 932v526h155v-508q0 -61 15.5 -109.5t41 -78.5t60.5 -50t71 -28t76 -8q84 0 195 28.5t184 59.5v694h156v-1458h-156v621q-61 -27 -175 -55.5t-214 -28.5q-85 0 -157.5 23.5t-129.5 70t-89.5 124t-32.5 177.5z" />
<glyph unicode="&#x428;" horiz-adv-x="2041" d="M211 0v1458h156v-1319h575v1319h158v-1319h575v1319h156v-1458h-1620z" />
<glyph unicode="&#x429;" horiz-adv-x="2086" d="M211 0v1458h156v-1319h575v1319h158v-1319h575v1319h156v-1319h172v-512h-154v373h-1638z" />
<glyph unicode="&#x42a;" horiz-adv-x="1552" d="M61 1319v139h568v-600h391q202 0 325 -118t123 -312q0 -192 -123 -310t-325 -118h-549v1319h-410zM629 139h377q145 0 226 76.5t81 212.5q0 138 -81 214.5t-226 76.5h-377v-580z" />
<glyph unicode="&#x42b;" horiz-adv-x="1769" d="M211 0v1458h156v-600h391q204 0 327 -118t123 -312q0 -192 -124 -310t-326 -118h-547zM367 139h376q146 0 227 76t81 213q0 138 -81 214.5t-227 76.5h-376v-580zM1403 0v1458h156v-1458h-156z" />
<glyph unicode="&#x42c;" horiz-adv-x="1290" d="M211 0v1458h156v-600h391q204 0 327 -118t123 -312q0 -192 -124 -310t-326 -118h-547zM367 139h376q146 0 227 76t81 213q0 138 -81 214.5t-227 76.5h-376v-580z" />
<glyph unicode="&#x42d;" horiz-adv-x="1202" d="M127 166l104 104q53 -52 86 -75t76 -41q61 -27 139 -27q157 0 256 102q60 62 81.5 151.5t21.5 285.5h-529v139h529q0 10 -1 61.5t-2 68.5t-4.5 61t-10.5 67t-17.5 57t-27.5 60t-40 49q-102 102 -256 102q-76 0 -139 -26q-45 -20 -76.5 -42.5t-85.5 -74.5l-104 104 q68 62 109 90.5t96 51.5q91 36 203 36q223 0 374 -151q82 -82 111 -195.5t29 -341.5v-37q0 -87 -0.5 -129.5t-4 -112t-12.5 -110t-24 -91t-40 -89.5t-59 -74q-151 -151 -377 -151q-110 0 -200 37q-56 23 -97 51.5t-108 89.5z" />
<glyph unicode="&#x42e;" horiz-adv-x="1851" d="M211 0v1458h156v-653h309q1 84 2.5 131.5t9 110t22 104t40 86t63.5 82.5q151 151 373 151q106 0 203 -39t170 -112q81 -82 109 -192.5t28 -266.5v-131q0 -266 -23.5 -382.5t-113.5 -207.5q-151 -151 -373 -151t-373 151q-86 87 -111.5 198.5t-25.5 328.5h-309v-666h-156z M831 670q0 -195 21.5 -285.5t81.5 -153.5q104 -104 252 -104q151 0 252 104q21 22 37 48t26.5 50t17.5 61.5t11 64t5.5 76.5t2 80.5t0.5 93.5v63q0 213 -19.5 305t-80.5 156q-102 102 -252 102q-155 0 -252 -102q-65 -67 -84 -169t-19 -319v-71z" />
<glyph unicode="&#x42f;" horiz-adv-x="1343" d="M115 0l336 623q-145 35 -228.5 143t-83.5 264q0 192 124.5 310t326.5 118h543v-1458h-158v600h-361l-315 -600h-184zM293 1030q0 -138 81.5 -214.5t227.5 -76.5h373v580h-373q-146 0 -227.5 -76t-81.5 -213z" />
<glyph unicode="&#x430;" horiz-adv-x="1077" d="M104 285q0 136 93 213t256 77h303v97q0 116 -63 168.5t-201 52.5q-92 0 -156 -31q-26 -12 -45 -29.5t-47 -54.5l-101 92q41 47 66 69t61 40q81 41 226 41q407 0 407 -336v-684h-147v96q-65 -63 -115 -82q-61 -26 -178 -26q-175 0 -267 76t-92 221zM248 287 q0 -91 58 -131.5t186 -40.5q141 0 202.5 56t61.5 185v109h-283q-225 0 -225 -178z" />
<glyph unicode="&#x431;" horiz-adv-x="1085" d="M150 702q0 109 1.5 172.5t9.5 142.5t23.5 128.5t44 100.5t70.5 89q44 40 102 67t125.5 39t121.5 18t126.5 9.5t102.5 6.5v-136q-29 -4 -113 -8.5t-142.5 -10.5t-130 -28.5t-112.5 -60.5q-24 -22 -42.5 -49.5t-30 -61t-19 -60.5t-11.5 -66t-5.5 -58t-3 -55.5t-1.5 -40.5h6 q35 72 121 115.5t174 43.5q192 0 289.5 -130t97.5 -369q0 -151 -27.5 -244t-90.5 -158q-107 -110 -283 -110q-137 0 -231.5 72t-133.5 200q-38 121 -38 442zM297 496q0 -121 16.5 -188t57.5 -111q69 -78 182 -78q111 0 180 78q40 43 57 110.5t17 184.5q0 122 -16.5 189.5 t-57.5 111.5q-69 75 -180 75q-113 0 -182 -75q-40 -43 -57 -111t-17 -186z" />
<glyph unicode="&#x432;" horiz-adv-x="1103" d="M186 0v1008h467q134 0 215.5 -72.5t81.5 -192.5q0 -163 -159 -221q176 -66 176 -243q0 -129 -80 -204t-221 -75h-480zM332 127h307q85 0 133.5 45t48.5 121t-48.5 121t-133.5 45h-307v-332zM332 580h295q87 0 132.5 39t45.5 112q0 72 -46 111t-132 39h-295v-301z" />
<glyph unicode="&#x433;" horiz-adv-x="854" d="M193 0v1008h638v-127h-491v-881h-147z" />
<glyph unicode="&#x434;" horiz-adv-x="1140" d="M39 127h125q45 100 70 174t44 207t19 307v193h635v-881h149v-438h-143v311h-758v-311h-141v438zM328 127h456v754h-342v-191q-1 -185 -29.5 -310.5t-84.5 -252.5z" />
<glyph unicode="&#x435;" horiz-adv-x="1085" d="M129 510q0 237 111 373.5t303 136.5t302.5 -131t110.5 -357v-67h-680q5 -119 31 -182q69 -166 275 -166q66 0 129 24q34 14 60 32t67 58l100 -88q-54 -53 -88.5 -77t-81.5 -43q-84 -35 -195 -35q-218 0 -331 132.5t-113 389.5zM276 575h533q-5 93 -18 134 q-26 87 -92 136.5t-156 49.5q-79 0 -142 -40.5t-94 -111.5q-15 -34 -21.5 -68t-9.5 -100z" />
<glyph unicode="&#x436;" horiz-adv-x="1464" d="M25 0l370 596l-329 412h180l411 -543v543h148v-543l414 543h178l-330 -412l373 -596h-178l-289 479l-168 -209v-270h-148v270l-165 209l-291 -479h-176z" />
<glyph unicode="&#x437;" horiz-adv-x="987" d="M66 133l92 96q67 -62 133.5 -87t161.5 -25q98 0 176 47.5t78 126.5q0 82 -56 125t-151 43h-148v123h150q85 0 136.5 42.5t51.5 118.5q0 75 -61 114.5t-166 39.5q-149 0 -270 -84l-84 98q151 109 368 109q155 0 256 -72t101 -200q0 -76 -42.5 -137.5t-117.5 -88.5 q80 -25 128 -88.5t48 -148.5q0 -132 -111.5 -213.5t-269.5 -81.5q-127 0 -222 32t-181 111z" />
<glyph unicode="&#x438;" horiz-adv-x="1181" d="M186 0v1008h146v-777l518 777h147v-1008h-147v780l-518 -780h-146z" />
<glyph unicode="&#x439;" horiz-adv-x="1181" d="M186 0v1008h146v-777l518 777h147v-1008h-147v780l-518 -780h-146zM262 1450h119q40 -150 211 -150q172 0 207 150h119q-50 -266 -328 -266q-275 0 -328 266z" />
<glyph unicode="&#x43a;" horiz-adv-x="1091" d="M188 0v1008h148v-543l471 543h182l-364 -412l413 -596h-184l-330 487l-188 -213v-274h-148z" />
<glyph unicode="&#x43b;" horiz-adv-x="1150" d="M43 0v127h47q39 0 70 11.5t63.5 43t52.5 101t23 172.5l14 553h652v-1008h-148v881h-360l-13 -467q-6 -216 -90 -315t-227 -99h-84z" />
<glyph unicode="&#x43c;" horiz-adv-x="1343" d="M186 0v1008h146l342 -678l338 678h145v-1008h-147v717l-281 -557h-113l-284 557v-717h-146z" />
<glyph unicode="&#x43d;" horiz-adv-x="1150" d="M186 0v1008h146v-424h487v424h148v-1008h-148v457h-487v-457h-146z" />
<glyph unicode="&#x43e;" horiz-adv-x="1085" d="M131 504q0 146 29 240.5t94 160.5q115 115 289 115q173 0 288 -115q64 -64 93.5 -159t29.5 -236q0 -151 -28.5 -246t-94.5 -162q-114 -114 -288 -114q-175 0 -289 114q-65 66 -94 161t-29 241zM279 504q0 -123 18.5 -194t62.5 -117q71 -74 183 -74q113 0 184 74 q43 44 61.5 114.5t18.5 190.5q0 130 -18 201.5t-62 115.5q-71 74 -184 74q-112 0 -183 -74q-44 -44 -62.5 -115.5t-18.5 -195.5z" />
<glyph unicode="&#x43f;" horiz-adv-x="1150" d="M186 0v1008h781v-1008h-148v881h-487v-881h-146z" />
<glyph unicode="&#x440;" horiz-adv-x="1116" d="M184 -451v1459h148v-119q35 41 58 61t56 37q65 33 162 33q195 0 286 -125.5t91 -392.5q0 -263 -91.5 -388.5t-283.5 -125.5q-96 0 -161 32q-32 15 -56 35.5t-61 63.5v-570h-148zM332 504q0 -202 60 -293.5t194 -91.5q132 0 192 91t60 292q0 206 -59.5 296.5t-194.5 90.5 q-132 0 -192 -92t-60 -293z" />
<glyph unicode="&#x441;" horiz-adv-x="1003" d="M129 504q0 242 120.5 379t332.5 137q94 0 170 -31q42 -19 73 -43t82 -76l-100 -94q-68 71 -115 90q-54 23 -112 23q-150 0 -227 -97.5t-77 -287.5t76.5 -287.5t225.5 -97.5q63 0 110 20q30 13 54 32.5t65 61.5l100 -96q-51 -52 -82 -76t-73 -43q-74 -30 -170 -30 q-212 0 -332.5 137t-120.5 379z" />
<glyph unicode="&#x442;" horiz-adv-x="866" d="M23 881v127h823v-127h-330v-881h-147v881h-346z" />
<glyph unicode="&#x443;" horiz-adv-x="915" d="M23 1008h159l277 -809l274 809h160l-459 -1252q-35 -97 -100 -142.5t-168 -45.5h-64v131h45q72 0 105 25t61 100l72 196z" />
<glyph unicode="&#x444;" horiz-adv-x="1413" d="M123 506q0 246 133.5 380t376.5 134v438h147v-438q242 0 376 -134t134 -380t-136.5 -382t-373.5 -136v-439h-147v439q-237 0 -373.5 136t-136.5 382zM268 502q0 -177 92.5 -280t272.5 -103v770q-98 0 -169.5 -29t-113.5 -82t-62 -121.5t-20 -154.5zM778 119 q181 0 273 102.5t92 280.5q0 86 -20 154.5t-62 121.5t-113.5 82t-169.5 29v-770z" />
<glyph unicode="&#x445;" horiz-adv-x="978" d="M68 0l342 514l-328 494h178l232 -373l227 373h178l-328 -494l342 -514h-178l-241 391l-246 -391h-178z" />
<glyph unicode="&#x446;" horiz-adv-x="1185" d="M186 0v1008h146v-881h487v881h148v-881h151v-438h-143v311h-789z" />
<glyph unicode="&#x447;" horiz-adv-x="1077" d="M150 662v346h147v-326q0 -51 17 -87t46.5 -54t60 -25.5t66.5 -7.5q85 0 258 51v449h148v-1008h-148v432q-59 -21 -143.5 -36t-134.5 -15q-146 0 -231.5 72.5t-85.5 208.5z" />
<glyph unicode="&#x448;" horiz-adv-x="1640" d="M186 0v1008h146v-881h413v881h148v-881h414v881h147v-1008h-1268z" />
<glyph unicode="&#x449;" horiz-adv-x="1671" d="M186 0v1008h146v-881h413v881h148v-881h414v881h147v-881h152v-438h-144v311h-1276z" />
<glyph unicode="&#x44a;" horiz-adv-x="1218" d="M23 881v127h487v-400h303q145 0 232.5 -83.5t87.5 -221.5q0 -137 -87.5 -220t-232.5 -83h-448v881h-342zM510 127h287q92 0 140 45.5t48 130.5t-48 130.5t-140 45.5h-287v-352z" />
<glyph unicode="&#x44b;" horiz-adv-x="1470" d="M186 0v1008h146v-400h303q145 0 232 -83.5t87 -221.5q0 -137 -87 -220t-232 -83h-449zM332 127h286q92 0 140.5 45.5t48.5 130.5t-48.5 130.5t-140.5 45.5h-286v-352zM1116 0v1008h148v-1008h-148z" />
<glyph unicode="&#x44c;" horiz-adv-x="1036" d="M186 0v1008h146v-400h303q145 0 232 -83.5t87 -221.5q0 -137 -87 -220t-232 -83h-449zM332 127h286q92 0 140.5 45.5t48.5 130.5t-48.5 130.5t-140.5 45.5h-286v-352z" />
<glyph unicode="&#x44d;" horiz-adv-x="1003" d="M96 137l99 94q58 -61 108 -87.5t123 -26.5q77 0 135 27.5t93.5 76t53 109.5t19.5 135h-414v110h412q-10 143 -85.5 229.5t-215.5 86.5q-71 0 -121.5 -27.5t-107.5 -87.5l-99 94q78 82 149 116t177 34q212 0 331 -136t119 -378q0 -244 -119 -381t-331 -137 q-107 0 -177.5 34t-148.5 115z" />
<glyph unicode="&#x44e;" horiz-adv-x="1490" d="M186 0v1008h146v-428h207q12 221 131 335q111 105 278 105q197 0 307 -135q105 -129 105 -375q0 -151 -28.5 -246.5t-94.5 -161.5q-111 -114 -289 -114q-169 0 -276 104q-127 118 -133 363h-207v-455h-146zM684 506q0 -123 17 -191.5t59 -115.5q74 -80 188 -80 q115 0 189 80q41 45 58 115t17 188q0 123 -17 192.5t-60 116.5q-69 78 -187 78q-117 0 -186 -78q-43 -46 -60.5 -115.5t-17.5 -189.5z" />
<glyph unicode="&#x44f;" horiz-adv-x="1077" d="M109 0l241 414q-108 22 -171.5 100t-63.5 193q0 135 87.5 218t229.5 83h459v-1008h-146v395h-241l-219 -395h-176zM262 700q0 -85 50 -131.5t143 -46.5h290v359h-290q-93 0 -143 -47t-50 -134z" />
<glyph unicode="&#x451;" horiz-adv-x="1085" d="M129 510q0 237 111 373.5t303 136.5t302.5 -131t110.5 -357v-67h-680q5 -119 31 -182q69 -166 275 -166q66 0 129 24q34 14 60 32t67 58l100 -88q-54 -53 -88.5 -77t-81.5 -43q-84 -35 -195 -35q-218 0 -331 132.5t-113 389.5zM240 1321q0 38 27 66t65 28 q37 0 64.5 -27.5t27.5 -64.5q0 -40 -27 -67t-65 -27t-65 27t-27 65zM276 575h533q-5 93 -18 134q-26 87 -92 136.5t-156 49.5q-79 0 -142 -40.5t-94 -111.5q-15 -34 -21.5 -68t-9.5 -100zM674 1321q0 38 27 66t65 28q37 0 64.5 -27.5t27.5 -64.5q0 -40 -27 -67t-65 -27 t-65 27t-27 65z" />
<glyph unicode="&#x452;" horiz-adv-x="1150" d="M68 905v111h118v442h146v-442h508v-111h-508v-266q66 66 134 95.5t159 29.5q165 0 258.5 -101t93.5 -274v-532q0 -64 -17.5 -118.5t-52.5 -98t-93.5 -68.5t-135.5 -25h-98v127h73q82 0 129 54t47 135v502q0 130 -60 199t-177 69q-119 0 -189.5 -71.5t-70.5 -196.5v-365 h-146v905h-118z" />
<glyph unicode="&#x453;" horiz-adv-x="854" d="M193 0v1008h638v-127h-491v-881h-147zM350 1217l180 313h177l-222 -313h-135z" />
<glyph unicode="&#x454;" horiz-adv-x="1003" d="M129 506q0 241 120 377.5t331 136.5q108 0 177 -33.5t150 -116.5l-98 -94q-59 61 -109 88t-122 27q-139 0 -214 -86.5t-85 -229.5h428v-110h-431q2 -74 19.5 -135t52.5 -110t94 -76t136 -27q73 0 123 26.5t108 87.5l98 -94q-79 -82 -149 -115.5t-178 -33.5 q-212 0 -331.5 137t-119.5 381z" />
<glyph unicode="&#x455;" horiz-adv-x="1015" d="M88 133l98 98q62 -57 115 -79q87 -37 201 -37q129 0 197.5 46t68.5 134q0 130 -168 145l-166 15q-301 24 -301 268q0 137 102 217t277 80q114 0 223 -37q65 -23 131 -72l-96 -96q-54 40 -104 55q-77 25 -162 25q-109 0 -168.5 -43.5t-59.5 -124.5q0 -67 43 -102t134 -43 l161 -15q151 -13 224 -80t73 -190q0 -146 -111.5 -227.5t-312.5 -81.5q-136 0 -243 43q-45 19 -75.5 39t-80.5 63z" />
<glyph unicode="&#x456;" horiz-adv-x="518" d="M158 1386q0 41 29.5 71t70.5 30t71.5 -29t30.5 -69q0 -43 -29.5 -73t-72.5 -30q-41 0 -70.5 29.5t-29.5 70.5zM184 0v1008h148v-1008h-148z" />
<glyph unicode="&#x457;" horiz-adv-x="518" d="M-55 1321q0 38 27 66t65 28q37 0 64.5 -27.5t27.5 -64.5q0 -40 -27 -67t-65 -27t-65 27t-27 65zM184 0v1008h148v-1008h-148zM379 1321q0 38 27 66t65 28q37 0 64.5 -27.5t27.5 -64.5q0 -40 -27 -67t-65 -27t-65 27t-27 65z" />
<glyph unicode="&#x458;" horiz-adv-x="518" d="M-31 -324h80q72 0 103.5 35t31.5 113v1184h148v-1190q0 -128 -67.5 -199.5t-188.5 -71.5h-107v129zM158 1386q0 41 29.5 71t70.5 30t71.5 -29t30.5 -69q0 -43 -29.5 -73t-72.5 -30q-41 0 -70.5 29.5t-29.5 70.5z" />
<glyph unicode="&#x459;" horiz-adv-x="1673" d="M47 0v127h47q30 0 55 6t54 26t49 54.5t34.5 96t16.5 145.5l14 553h650v-400h303q145 0 232 -83.5t87 -221.5q0 -137 -87 -220t-232 -83h-449v881h-360l-12 -467q-6 -215 -90.5 -314.5t-227.5 -99.5h-84zM967 127h286q92 0 140.5 45.5t48.5 130.5t-48.5 130.5t-140.5 45.5 h-286v-352z" />
<glyph unicode="&#x45a;" horiz-adv-x="1671" d="M186 0v1008h146v-400h487v400h148v-400h303q145 0 232 -83.5t87 -221.5q0 -137 -87 -220t-232 -83h-451v481h-487v-481h-146zM967 127h286q92 0 140.5 45.5t48.5 130.5t-48.5 130.5t-140.5 45.5h-286v-352z" />
<glyph unicode="&#x45b;" horiz-adv-x="1150" d="M68 905v111h118v442h146v-442h508v-111h-508v-266q67 67 130.5 96t153.5 29q166 0 263.5 -101.5t97.5 -273.5v-389h-148v365q0 129 -63.5 198.5t-181.5 69.5t-185 -71t-67 -197v-365h-146v905h-118z" />
<glyph unicode="&#x45c;" horiz-adv-x="1091" d="M188 0v1008h148v-543l471 543h182l-364 -412l413 -596h-184l-330 487l-188 -213v-274h-148zM412 1217l180 313h176l-221 -313h-135z" />
<glyph unicode="&#x45e;" horiz-adv-x="915" d="M23 1008h159l277 -809l274 809h160l-459 -1252q-35 -97 -100 -142.5t-168 -45.5h-64v131h45q72 0 105 25t61 100l72 196zM129 1450h119q40 -150 211 -150q172 0 207 150h118q-50 -266 -327 -266q-275 0 -328 266z" />
<glyph unicode="&#x45f;" horiz-adv-x="1153" d="M186 0v1008h146v-881h487v881h148v-1008h-320v-311h-143v311h-318z" />
<glyph unicode="&#x490;" horiz-adv-x="1165" d="M225 0v1458h723v373h154v-512h-721v-1319h-156z" />
<glyph unicode="&#x491;" horiz-adv-x="854" d="M193 0v1008h495v311h143v-438h-491v-881h-147z" />
<glyph unicode="&#x2000;" horiz-adv-x="949" />
<glyph unicode="&#x2001;" horiz-adv-x="1898" />
<glyph unicode="&#x2002;" horiz-adv-x="949" />
<glyph unicode="&#x2003;" horiz-adv-x="1898" />
<glyph unicode="&#x2004;" horiz-adv-x="632" />
<glyph unicode="&#x2005;" horiz-adv-x="474" />
<glyph unicode="&#x2006;" horiz-adv-x="316" />
<glyph unicode="&#x2007;" horiz-adv-x="316" />
<glyph unicode="&#x2008;" horiz-adv-x="237" />
<glyph unicode="&#x2009;" horiz-adv-x="379" />
<glyph unicode="&#x200a;" horiz-adv-x="105" />
<glyph unicode="&#x2010;" horiz-adv-x="872" d="M156 483v138h561v-138h-561z" />
<glyph unicode="&#x2011;" horiz-adv-x="872" d="M156 483v138h561v-138h-561z" />
<glyph unicode="&#x2012;" horiz-adv-x="872" d="M156 483v138h561v-138h-561z" />
<glyph unicode="&#x2013;" horiz-adv-x="1024" d="M0 483v138h1024v-138h-1024z" />
<glyph unicode="&#x2014;" horiz-adv-x="2048" d="M0 483v138h2048v-138h-2048z" />
<glyph unicode="&#x2018;" horiz-adv-x="538" d="M129 1196l127 369h133l-80 -369h-180z" />
<glyph unicode="&#x2019;" horiz-adv-x="538" d="M129 1196l80 369h180l-127 -369h-133z" />
<glyph unicode="&#x201a;" horiz-adv-x="538" d="M129 -176l80 369h180l-127 -369h-133z" />
<glyph unicode="&#x201c;" horiz-adv-x="888" d="M129 1196l127 369h133l-80 -369h-180zM487 1196l127 369h134l-80 -369h-181z" />
<glyph unicode="&#x201d;" horiz-adv-x="888" d="M129 1196l80 369h180l-127 -369h-133zM487 1196l80 369h181l-127 -369h-134z" />
<glyph unicode="&#x201e;" horiz-adv-x="888" d="M129 -176l80 369h180l-127 -369h-133zM487 -176l80 369h181l-127 -369h-134z" />
<glyph unicode="&#x2026;" horiz-adv-x="1550" d="M162 111q0 47 35 81.5t82 34.5q46 0 81 -34t35 -80q0 -49 -34.5 -84t-81.5 -35t-82 35t-35 82zM657 111q0 47 35 81.5t82 34.5q46 0 81.5 -34.5t35.5 -79.5q0 -49 -34.5 -84t-82.5 -35q-47 0 -82 35t-35 82zM1153 111q0 47 35 81.5t82 34.5q46 0 81 -34t35 -80 q0 -49 -34.5 -84t-81.5 -35t-82 35t-35 82z" />
<glyph unicode="&#x202f;" horiz-adv-x="379" />
<glyph unicode="&#x2039;" horiz-adv-x="671" d="M82 549l430 430v-184l-246 -246l246 -248v-182z" />
<glyph unicode="&#x203a;" horiz-adv-x="671" d="M160 119v182l248 248l-248 246v184l430 -430z" />
<glyph unicode="&#x205f;" horiz-adv-x="474" />
<glyph unicode="&#x2122;" horiz-adv-x="1718" d="M74 1350v108h604v-108h-244v-766h-119v766h-241zM831 584v874h119l267 -530l266 530h116v-874h-116v630l-209 -413h-115l-209 413v-630h-119z" />
<glyph unicode="&#xe000;" horiz-adv-x="1010" d="M0 0v1010h1010v-1010h-1010z" />
</font>
</defs>
</svg>
